• EN
    • Chinese ZH
    • English EN
    • Japanese JA
    • Portuguese PT
    • Spanish ES
    • French FR
    • Italian IT
    • German DE
  • Login
  • Register
Total available user on site :- 9812
Browse Torrents
| Search Cloud | | FAQ | Donate | Upload Torrent | |
Latest Articles/Blogs
Most searched
Loading...
Loading...
ETTorrent.xyz > Categories > TV > TV

Game of Thrones S07E04 HDTV XviD B4ND1T69


Download torrent: Bookmark Torrent: Coworker Blackmailed into Sex - Xev Bellringer XXX  Game of Thrones S07E04 HDTV XviD B4ND1T69
Info hash: 51A531631CF8A86730245E7F500DF751DDDCEE44
Category: Categories > TV > TV
Trackers:
8    View all torrent trackers
Health:
 seeds: 779 ,  leechers: 970
Torrent language: English English
Total Size: 505.78 MB
Number of files:
3     
Torrent status: Added by trusted uploader Added by trusted uploader
Uploader:
Torrent added: 2017-Aug-07 06:52:53
Users reaction: Please Login or Register for user reaction.




Torrent Description

Game.of.Thrones.S07E04.HDTV.XviD.B4ND1T69



Creators: David Benioff, D.B. Weiss
Stars: Emilia Clarke, Peter Dinklage, Kit Harington 

Plot/Story:
The Spoils of War
Daenerys fights back. Jaime faces an unexpected situation. Arya comes home.

General
Complete name               : Game.of.Thrones.S07E04.HDTV.XviD.B4ND1T69.avi
Format                      : AVI
Format/Info                 : Audio Video Interleave
File size                   : 506 MiB
Duration                    : 49 min 18 s
Overall bit rate            : 1 434 kb/s
Writing application         : Lavf54.63.104

Video
ID                          : 0
Format                      : MPEG-4 Visual
Format profile              : [email protected]
Format settings, BVOP       : No
Format settings, QPel       : No
Format settings, GMC        : No warppoints
Format settings, Matrix     : Default (H.263)
Codec ID                    : XVID
Codec ID/Hint               : XviD
Duration                    : 49 min 18 s
Bit rate                    : 1 294 kb/s
Width                       : 624 pixels
Height                      : 352 pixels
Display aspect ratio        : 16:9
Frame rate                  : 23.976 (24000/1001) FPS
Original frame rate         : 23.976 (23976/1000) FPS
Color space                 : YUV
Chroma subsampling          : 4:2:0
Bit depth                   : 8 bits
Scan type                   : Progressive
Compression mode            : Lossy
Bits/(Pixel*Frame)          : 0.246
Stream size                 : 456 MiB (90%)
Writing library             : XviD 64

Audio
ID                          : 1
Format                      : MPEG Audio
Format version              : Version 1
Format profile              : Layer 3
Mode                        : Joint stereo
Mode extension              : MS Stereo
Codec ID                    : 55
Codec ID/Hint               : MP3
Duration                    : 49 min 18 s
Bit rate mode               : Constant
Bit rate                    : 128 kb/s
Channel(s)                  : 2 channels
Sampling rate               : 48.0 kHz
Compression mode            : Lossy
Stream size                 : 45.1 MiB (9%)
Alignment                   : Aligned on interleaves
Interleave, duration        : 24  ms (0.58 video frame)
Interleave, preload duratio : 24  ms

Screenshots:






Please Seed For As Long As Possible
Or At Least 1:1 Ratio...Thanks
Enjoy Peeps




Leave your comment (Please Login or Register Before the comments.)
 
0 comments

Home - Browse Torrents - Upload Torrent - Stat - Forum - FAQ - Login- D.M.C.A
ETTorrent.xyz is in compliance with copyrights
Proxy Sites: Xtor.club Wikipediaz.xyz
BitCoin: 1PHjpE9JC3G4joZG6q2tUFkvHDmnTfKUJN

2016-2017 ETTorrent.xyz