Game of Thrones S07E04 The Spoils of War 1080p x264 Phun Psyz - ExtraTorrent The World's Largest Bit Torrent Site
Browse Torrents
| Search Cloud | | Activity Log | Donate | Upload Torrent | |
Latest Articles/Blogs
Most searched
Loading...
Loading...
ETTorrent.xyz > Categories > TV > TV

Game of Thrones S07E04 The Spoils of War 1080p x264 Phun Psyz


Download torrent: Bookmark Torrent: Coworker Blackmailed into Sex - Xev Bellringer XXX  Game of Thrones S07E04 The Spoils of War 1080p x264 Phun Psyz
Info hash: C7EF113DE42EE20819220DDAAFB9D717DC339028
Category: Categories > TV > TV
Trackers:
12    View all torrent trackers
Health:
 seeds: 237 ,  leechers: 899
Torrent language: English English
Total Size: 568.84 MB
Number of files:
3     
Torrent status: Added by trusted uploader Added by trusted uploader
Uploader:
Torrent added: 2017-Aug-07 06:48:11
Users reaction: Please Login or Register for user reaction.




Torrent Description








Format                      : MPEG-4
Format profile              : Base Media / Version 2
Codec ID                    : mp42 (isom/iso2/avc1/mp41)
File size                   : 569 MiB
Duration                    : 51 min 21 s
Overall bit rate mode       : Variable
Overall bit rate            : 1 548 kb/s
Writing application         : HandBrake 1.0.7 2017040900

Video
ID                          : 1
Format                      : AVC
Format/Info                 : Advanced Video Codec
Format profile              : [email protected]
Format settings, CABAC      : Yes
Format settings, ReFrames   : 8 frames
Codec ID                    : avc1
Codec ID/Info               : Advanced Video Coding
Duration                    : 51 min 21 s
Bit rate                    : 1 382 kb/s
Width                       : 1 920 pixels
Height                      : 1 080 pixels
Display aspect ratio        : 16:9
Frame rate mode             : Variable
Frame rate                  : 23.976 (24000/1001) FPS
Minimum frame rate          : 23.974 FPS
Maximum frame rate          : 23.981 FPS
Color space                 : YUV
Chroma subsampling          : 4:2:0
Bit depth                   : 8 bits
Scan type                   : Progressive
Bits/(Pixel*Frame)          : 0.028
Stream size                 : 508 MiB (89%)
Writing library             : x264 core 148 r2708 86b7198
Color range                 : Limited
Color primaries             : BT.709
Transfer characteristics    : BT.709
Matrix coefficients         : BT.709
Menus                       : 3

Audio
ID                          : 2
Format                      : AAC
Format/Info                 : Advanced Audio Codec
Format profile              : LC
Codec ID                    : 40
Duration                    : 51 min 21 s
Bit rate mode               : Variable
Bit rate                    : 160 kb/s
Channel(s)                  : 2 channels
Channel positions           : Front: L R
Sampling rate               : 48.0 kHz
Frame rate                  : 46.875 FPS (1024 spf)
Compression mode            : Lossy
Stream size                 : 58.8 MiB (10%)
Title                       : Stereo / Stereo
Language                    : English
Default                     : Yes
Alternate group             : 1
Menus                       : 3

Menu
ID                          : 3
Codec ID                    : text
Duration                    : 51 min 21 s
Language                    : English
Menu For                    : 1,2
00:00:00.000                : Stay Tuned
00:00:04.004                : Previously On
00:01:29.423                : Studio Logo
00:01:34.761                : Opening Credits
00:03:22.869                : The Lannisters leave with their spoils; Highgarden
00:06:04.364                : Cersei and Tycho Nestoris discuss the repayment; King's Landing
00:07:39.125                : Littlefinger has a gift for Bran; Winterfell
00:11:31.357                : Arya arrives at home; Winterfell
00:17:23.709                : The Stark children are reunited; Winterfell
00:20:47.913                : Jon has something to show Daenerys; Dragonstone
00:25:44.209                : Daenerys receives the news about Casterly Rock; Dragonstone
00:28:25.704                : Arya spars with Brienne; Winterfell
00:31:53.912                : Dragonstone has an unexpected arrival; Dragonstone
00:35:50.148                : The Lannisters' march is interrupted; The Reach
00:49:33.637                : End Credits
00:50:51.048                : Next On
00:51:20.411                : Online Extra
Bit rate mode               : VBR
 




Leave your comment (Please Login or Register Before the comments.)
 
0 comments

Home - Browse Torrents - Upload Torrent - Stat - Forum - FAQ - Login- D.M.C.A
ETTorrent.xyz is in compliance with copyrights
Proxy Sites: Xtor.club Wikipediaz.xyz
BitCoin: 1PHjpE9JC3G4joZG6q2tUFkvHDmnTfKUJN

2016-2017 ETTorrent.xyz