• EN
    • Chinese ZH
    • English EN
    • Japanese JA
    • Portuguese PT
    • Spanish ES
    • French FR
    • Italian IT
    • German DE
  • Login
  • Register
Total available user on site :- 7515
Browse Torrents
| Search Cloud | | FAQ | Donate | Upload Torrent | |
Latest Articles/Blogs
Most searched
Loading...
Loading...
ETTorrent.xyz > Categories > TV > Game of Thrones

Game of Thrones S07E05 720p HDTV x264-AVS


Download torrent: Bookmark Torrent: Coworker Blackmailed into Sex - Xev Bellringer XXX  Game of Thrones S07E05 720p HDTV x264-AVS
Info hash: F9E9EC568A61F4475BDB8F2D83EDBC5C7BF35FC0
Category: Categories > TV > Game of Thrones
Trackers:
15    View all torrent trackers
Health:
 seeds: 342 ,  leechers: 1449
Torrent language: English English
Total Size: 959.97 MB
Number of files:
2     
Torrent status: Added by trusted uploader Added by trusted uploader
Uploader:
Torrent added: 2017-Aug-13 09:54:55
Users reaction: Please Login or Register for user reaction.




Torrent Description

Game.of.Thrones.S07E05.720p.HDTV.x264-AVS



Complete name                            : Game.of.Thrones.S07E05.720p.HDTV.x264-AVS.mkv
Format                                   : Matroska
Format version                           : Version 4 / Version 2
File size                                : 960 MiB
Duration                                 : 58 min 23 s
Overall bit rate                         : 2 298 kb/s
Encoded date                             : UTC 2017-08-14 01:06:21
Writing application                      : FastLE v3.0.0 - AVS
Writing library                          : libx264 + libebml + libmatroska + libfastrar

Video
ID                                       : 1
Format                                   : AVC
Format/Info                              : Advanced Video Codec
Format profile                           : [email protected]
Format settings, CABAC                   : Yes
Format settings, ReFrames                : 5 frames
Codec ID                                 : V_MPEG4/ISO/AVC
Duration                                 : 58 min 23 s
Bit rate                                 : 1 869 kb/s
Width                                    : 1 280 pixels
Height                                   : 718 pixels
Display aspect ratio                     : 16:9
Frame rate mode                          : Constant
Frame rate                               : 23.976 (24000/1001) FPS
Color space                              : YUV
Chroma subsampling                       : 4:2:0
Bit depth                                : 8 bits
Scan type                                : Progressive
Bits/(Pixel*Frame)                       : 0.085
Stream size                              : 780 MiB (81%)
Writing library                          : x264 core 152 r2851 ba24899
Encoding settings                        : cabac=1 / ref=5 / deblock=1:0:0 / analyse=0x3:0x113 / me=hex / subme=8 / psy=1 / psy_rd=1.00:0.00 / mixed_ref=1 / me_range=16 / chroma_me=1 / trellis=2 / 8x8dct=1 / cqm=0 / deadzone=21,11 / fast_pskip=1 / chroma_qp_offset=-2 / threads=22 / lookahead_threads=3 / sliced_threads=0 / nr=0 / decimate=1 / interlaced=0 / bluray_compat=0 / constrained_intra=0 / bframes=3 / b_pyramid=2 / b_adapt=1 / b_bias=0 / direct=3 / weightb=1 / open_gop=0 / weightp=2 / keyint=250 / keyint_min=23 / scenecut=40 / intra_refresh=0 / rc_lookahead=50 / rc=crf / mbtree=1 / crf=18.0 / qcomp=0.60 / qpmin=0 / qpmax=69 / qpstep=4 / ip_ratio=1.40 / aq=1:1.00
Default                                  : Yes
Forced                                   : No
Color range                              : Limited
Matrix coefficients                      : BT.709

Audio
ID                                       : 2
Format                                   : AC-3
Format/Info                              : Audio Coding 3
Format settings, Endianness              : Big
Codec ID                                 : A_AC3
Duration                                 : 58 min 23 s
Bit rate mode                            : Constant
Bit rate                                 : 384 kb/s
Channel(s)                               : 6 channels
Channel positions                        : Front: L C R, Side: L R, LFE
Sampling rate                            : 48.0 kHz
Frame rate                               : 31.250 FPS (1536 spf)
Bit depth                                : 16 bits
Compression mode                         : Lossy
Stream size                              : 160 MiB (17%)
Service kind                             : Complete Main
Default                                  : Yes
Forced                                   : No






Click To View Screenshot

Click To View Screenshot

Click To View Screenshot




Leave your comment (Please Login or Register Before the comments.)
 
0 comments

Home - Browse Torrents - Upload Torrent - Stat - Forum - FAQ - Login- D.M.C.A
ETTorrent.xyz is in compliance with copyrights
Proxy Sites: Xtor.club Wikipediaz.xyz
BitCoin: 1PHjpE9JC3G4joZG6q2tUFkvHDmnTfKUJN

2016-2017 ETTorrent.xyz