Alien Covenant (2017) 1080p [Hindi Org Untouched Bluray Audio DD 5.1 @ 448 Kbps] [Dzrg Torrents®] - ExtraTorrent The World's Largest Bit Torrent Site
Browse Torrents
| Search Cloud | | Activity Log | Donate | Upload Torrent | |
Latest Articles/Blogs
Most searched
Loading...
Loading...
ETTorrent.xyz > Categories > Movies > Action

Alien Covenant (2017) 1080p [Hindi Org Untouched Bluray Audio DD 5.1 @ 448 Kbps] [Dzrg Torrents®]


Download torrent: Bookmark Torrent: Coworker Blackmailed into Sex - Xev Bellringer XXX  Alien Covenant (2017) 1080p [Hindi Org Untouched Bluray Audio DD 5.1 @ 448 Kbps] [Dzrg Torrents®]
Info hash: 2AEE51AACCBCF7D8016F3AAE794681F0F7B60262
Category: Categories > Movies > Action
Trackers:
14    View all torrent trackers
Health:
 seeds: 881 ,  leechers: 1493
Torrent language: English Hindi
Total Size: 2579.85 MB
Number of files:
1     
Torrent status: Added by trusted uploader Added by trusted uploader
Uploader:
Torrent added: 2017-Aug-31 09:43:13
Users reaction: Please Login or Register for user reaction.




Torrent Description

Alien Covenant (2017) 1080p [Hindi Org Untouched Bluray Audio DD 5.1 @ 448 Kbps] [Dzrg Torrents®]



General
Format                                   : Matroska
Format version                           : Version 4 / Version 2
File size                                : 2.52 GiB
Duration                                 : 2 h 2 min
Overall bit rate                         : 2 955 kb/s
Movie name                               : Alien Covenant (2017) 1080p [Hindi Org Untouched Bluray Audio DD 5.1 @ 448 Kbps] [Dzrg Torrents®].mkv
Encoded date                             : UTC 2017-09-01 03:48:40
Writing application                      : mkvmerge v10.0.0 ('To Drown In You') 64bit
Writing library                          : libebml v1.3.4 + libmatroska v1.4.5



Video
ID                                       : 1
Format                                   : AVC
Format/Info                              : Advanced Video Codec
Format profile                           : [email protected]
Format settings, CABAC                   : Yes
Format settings, ReFrames                : 4 frames
Codec ID                                 : V_MPEG4/ISO/AVC
Duration                                 : 2 h 2 min
Bit rate                                 : 2 500 kb/s
Width                                    : 1 920 pixels
Height                                   : 800 pixels
Display aspect ratio                     : 2.40:1
Frame rate mode                          : Constant
Frame rate                               : 23.976 (24000/1001) FPS
Original frame rate                      : 23.976 (23976/1000) FPS
Color space                              : YUV
Chroma subsampling                       : 4:2:0
Bit depth                                : 8 bits
Scan type                                : Progressive
Bits/(Pixel*Frame)                       : 0.068
Stream size                              : 2.13 GiB (85%)
Title                                    : Alien Covenant (2017) 1080p [Dzrg Torrents®]
Writing library                          : x264 core 152 r2851M ba24899
Language                                 : Hindi
Default                                  : Yes
Forced                                   : No


 


Audio
ID                                       : 2
Format                                   : AC-3
Format/Info                              : Audio Coding 3
Mode extension                           : CM (complete main)
Format settings, Endianness              : Big
Codec ID                                 : A_AC3
Duration                                 : 2 h 2 min
Bit rate mode                            : Constant
Bit rate                                 : 448 kb/s
Channel(s)                               : 6 channels
Channel positions                        : Front: L C R, Side: L R, LFE
Sampling rate                            : 48.0 kHz
Frame rate                               : 31.250 FPS (1536 spf)
Bit depth                                : 16 bits
Compression mode                         : Lossy
Stream size                              : 391 MiB (15%)
Title                                    : [Hindi Org Untouched Bluray Audio DD 5.1 @ 448 Kbps] [Dzrg Torrents®]
Language                                 : Hindi
Default                                  : Yes
Forced                                   : No


Text
ID                                       : 3
Format                                   : VobSub
Muxing mode                              : zlib
Codec ID                                 : S_VOBSUB
Codec ID/Info                            : Picture based subtitle format used on DVDs
Duration                                 : 1 h 54 min
Bit rate                                 : 5 595 b/s
Count of elements                        : 1708
Stream size                              : 4.57 MiB (0%)
Title                                    : [English] [Dzrg Torrents®]
Language                                 : English
Default                                  : Yes
Forced                                   : No





Leave your comment (Please Login or Register Before the comments.)
 
1 comments
1 

Home - Browse Torrents - Upload Torrent - Stat - Forum - FAQ - Login- D.M.C.A
ETTorrent.xyz is in compliance with copyrights
Proxy Sites: Xtor.club Wikipediaz.xyz
BitCoin: 1PHjpE9JC3G4joZG6q2tUFkvHDmnTfKUJN

2016-2017 ETTorrent.xyz