Horrible Bosses (2011) 1080p ExTeNDeD [Hindi Audio 2.0 CH @ 224 kbps Only] [Dzrg Torrents®].mkv - ExtraTorrent The World's Largest Bit Torrent Site
Browse Torrents
| Search Cloud | | Activity Log | Donate | Upload Torrent | |
Latest Articles/Blogs
Most searched
Loading...
Loading...
ETTorrent.xyz > Categories > Movies > Comedy

Horrible Bosses (2011) 1080p ExTeNDeD [Hindi Audio 2.0 CH @ 224 kbps Only] [Dzrg Torrents®].mkv


Download torrent: Bookmark Torrent: Coworker Blackmailed into Sex - Xev Bellringer XXX  Horrible Bosses (2011) 1080p ExTeNDeD [Hindi Audio 2.0 CH @ 224 kbps Only] [Dzrg Torrents®].mkv
Info hash: EAB0CA5754AFC83C3C23876E8E1B7E5C5A4A7611
Category: Categories > Movies > Comedy
Trackers:
17    View all torrent trackers
Health:
 seeds: 29901 ,  leechers: 12
Torrent language: English Hindi
Total Size: 2058.82 MB
Number of files:
1     
Torrent status: Added by trusted uploader Added by trusted uploader
Uploader:
Torrent added: 2017-Aug-31 09:33:51
Users reaction: Please Login or Register for user reaction.




Torrent Description

Horrible Bosses (2011) 1080p ExTeNDeD [Hindi Audio 2.0 CH @ 224 kbps Only] [Dzrg Torrents®].mkv



General
Format                                   : Matroska
Format version                           : Version 4 / Version 2
File size                                : 2.01 GiB
Duration                                 : 1 h 45 min
Overall bit rate                         : 2 726 kb/s
Encoded date                             : UTC 2017-08-13 09:49:09
Writing application                      : mkvmerge v10.0.0 ('To Drown In You') 64bit
Writing library                          : libebml v1.3.4 + libmatroska v1.4.5


Video
ID                                       : 1
Format                                   : AVC
Format/Info                              : Advanced Video Codec
Format profile                           : [email protected]
Format settings, CABAC                   : Yes
Format settings, ReFrames                : 4 frames
Codec ID                                 : V_MPEG4/ISO/AVC
Duration                                 : 1 h 45 min
Bit rate                                 : 2 500 kb/s
Width                                    : 1 920 pixels
Height                                   : 800 pixels
Display aspect ratio                     : 2.40:1
Frame rate mode                          : Constant
Frame rate                               : 23.976 (23976/1000) FPS
Color space                              : YUV
Chroma subsampling                       : 4:2:0
Bit depth                                : 8 bits
Scan type                                : Progressive
Bits/(Pixel*Frame)                       : 0.068
Stream size                              : 1.84 GiB (92%)
Title                                    : Horrible Bosses (2011) 1080p ExTeNDeD [Dzrg Torrents®].mkv
Writing library                          : x264 core 148 r2597M e86f3a1
Language                                 : Hindi
Default                                  : Yes
Forced                                   : No


 


Audio
ID                                       : 2
Format                                   : AC-3
Format/Info                              : Audio Coding 3
Format profile                           : Dolby Digital
Mode extension                           : CM (complete main)
Format settings, Endianness              : Big
Codec ID                                 : A_AC3
Duration                                 : 1 h 45 min
Bit rate mode                            : Constant
Bit rate                                 : 224 kb/s
Channel(s)                               : 2 channels
Channel positions                        : Front: L R
Sampling rate                            : 44.1 kHz
Frame rate                               : 28.711 FPS (1536 spf)
Bit depth                                : 16 bits
Compression mode                         : Lossy
Stream size                              : 169 MiB (8%)
Title                                    : [Hindi Audio 2.0 CH @ 224 kbps Only] [Dzrg Torrents®]
Language                                 : Hindi
Default                                  : Yes
Forced                                   : No





Leave your comment (Please Login or Register Before the comments.)
 
0 comments

Home - Browse Torrents - Upload Torrent - Stat - Forum - FAQ - Login- D.M.C.A
ETTorrent.xyz is in compliance with copyrights
Proxy Sites: Xtor.club Wikipediaz.xyz
BitCoin: 1PHjpE9JC3G4joZG6q2tUFkvHDmnTfKUJN

2016-2017 ETTorrent.xyz