• EN
    • Chinese ZH
    • English EN
    • Japanese JA
    • Portuguese PT
    • Spanish ES
    • French FR
    • Italian IT
    • German DE
  • Login
  • Register
Total available user on site :- 7618
Browse Torrents
| Search Cloud | | FAQ | Donate | Upload Torrent | |
Latest Articles/Blogs
Most searched
Loading...
Loading...
ETTorrent.xyz > Categories > Movies > Action

Four Brothers (2005) 1080p [Hindi Audio Org VCD DD 2.0 @ 224 Kbps] [Dzrg Torrents®]


Download torrent: Bookmark Torrent: Coworker Blackmailed into Sex - Xev Bellringer XXX  Four Brothers (2005) 1080p [Hindi Audio Org VCD DD 2.0 @ 224 Kbps] [Dzrg Torrents®]
Info hash: 324EEDB6D620C91A42DBAC5D21BBFD65589F95CE
Category: Categories > Movies > Action
Trackers:
14    View all torrent trackers
Health:
 seeds: 1041 ,  leechers: 1951
Torrent language: English Hindi
Total Size: 2120.68 MB
Number of files:
1     
Torrent status: Added by trusted uploader Added by trusted uploader
Uploader:
Torrent added: 2017-Aug-31 09:38:45
Users reaction: Please Login or Register for user reaction.




Torrent Description

Four Brothers (2005) 1080p [Hindi Audio Org VCD DD 2.0 @ 224 Kbps] [Dzrg Torrents®].mkv



General
Format                                   : Matroska
Format version                           : Version 4 / Version 2
File size                                : 2.07 GiB
Duration                                 : 1 h 48 min
Overall bit rate                         : 2 726 kb/s
Encoded date                             : UTC 2017-08-22 13:45:46
Writing application                      : mkvmerge v10.0.0 ('To Drown In You') 64bit
Writing library                          : libebml v1.3.4 + libmatroska v1.4.5


Video
ID                                       : 1
Format                                   : AVC
Format/Info                              : Advanced Video Codec
Format profile                           : [email protected]
Format settings, CABAC                   : Yes
Format settings, ReFrames                : 4 frames
Codec ID                                 : V_MPEG4/ISO/AVC
Duration                                 : 1 h 48 min
Bit rate                                 : 2 500 kb/s
Width                                    : 1 920 pixels
Height                                   : 816 pixels
Display aspect ratio                     : 2.35:1
Frame rate mode                          : Constant
Frame rate                               : 23.976 (23976/1000) FPS
Color space                              : YUV
Chroma subsampling                       : 4:2:0
Bit depth                                : 8 bits
Scan type                                : Progressive
Bits/(Pixel*Frame)                       : 0.067
Stream size                              : 1.90 GiB (92%)
Writing library                          : x264 core 148 r2638M 7599210
Language                                 : English
Default                                  : Yes
Forced                                   : No


 


Audio
ID                                       : 2
Format                                   : E-AC-3
Format/Info                              : Enhanced Audio Coding 3
Format settings, Endianness              : Big
Codec ID                                 : A_EAC3
Duration                                 : 1 h 48 min
Bit rate mode                            : Constant
Bit rate                                 : 224 kb/s
Channel(s)                               : 2 channels
Channel positions                        : Front: L R
Sampling rate                            : 48.0 kHz
Frame rate                               : 187.500 FPS (256 spf)
Compression mode                         : Lossy
Delay relative to video                  : 1 s 50 ms
Stream size                              : 174 MiB (8%)
Language                                 : Hindi
Default                                  : Yes
Forced                                   : No





Leave your comment (Please Login or Register Before the comments.)
 
0 comments

Home - Browse Torrents - Upload Torrent - Stat - Forum - FAQ - Login- D.M.C.A
ETTorrent.xyz is in compliance with copyrights
Proxy Sites: Xtor.club Wikipediaz.xyz
BitCoin: 1PHjpE9JC3G4joZG6q2tUFkvHDmnTfKUJN

2016-2017 ETTorrent.xyz