Chocolate (2017) 720p HDRip Bengali Movie _-By Ayon-_ - ExtraTorrent The World's Largest Bit Torrent Site
Browse Torrents
| Search Cloud | | Activity Log | Donate | Upload Torrent | |
Latest Articles/Blogs
Most searched
Loading...
Loading...
ETTorrent.xyz > Categories > Movies > Foreign

Chocolate (2017) 720p HDRip Bengali Movie _-By Ayon-_


Download torrent: Bookmark Torrent: Coworker Blackmailed into Sex - Xev Bellringer XXX  Chocolate (2017) 720p HDRip Bengali Movie _-By Ayon-_
Info hash: 080516F3DE4785009C609F4606175D8019FD436F
Category: Categories > Movies > Foreign
Trackers:
2    View all torrent trackers
Health:
 seeds: 30758 ,  leechers: 903
Torrent language: English Hindi
Total Size: 770 MB
Number of files:
1     
Torrent status: Added by trusted uploader Added by trusted uploader
Uploader:
Torrent added: 2017-Sep-05 09:40:19
Users reaction: Please Login or Register for user reaction.




Torrent Description

Chocolate (2017) 720p HDRip Bengali Movie _-By Ayon-_

Chocolate (2017) 720p HDRip Bengali Movie - Payel,Parambrata Chatterjee _-By Ayon-_.MP4

General

Format : MPEG-4
Format profile : Base Media / Version 2
Codec ID : mp42 (isom/mp42)
File size : 770 MiB
Duration : 1 h 43 min
Overall bit rate mode : Variable
Overall bit rate : 1 040 kb/s

Video
ID : 1
Format : AVC
Format/Info : Advanced Video Codec
Format profile : [email protected]
Format settings, CABAC : Yes
Format settings, RefFrames : 3 frames
Codec ID : avc1
Codec ID/Info : Advanced Video Coding
Duration : 1 h 43 min
Bit rate : 910 kb/s
Width : 1 280 pixels
Height : 720 pixels
Display aspect ratio : 16:9
Frame rate mode : Constant
Frame rate : 24.000 FPS
Color space : YUV
Chroma subsampling : 4:2:0
Bit depth : 8 bits
Scan type : Progressive
Bits/(Pixel*Frame) : 0.041
Stream size : 674 MiB (88%)

Audio
ID : 2
Format : AAC
Format/Info : Advanced Audio Codec
Format profile : LC
Codec ID : 40
Duration : 1 h 43 min
Source duration : 1 h 43 min
Bit rate mode : Variable
Bit rate : 126 kb/s
Channel(s) : 2 channels
Channel positions : Front: L R
Sampling rate : 44.1 kHz
Frame rate : 43.066 FPS (1024 SPF)
Compression mode : Lossy
Stream size : 93.0 MiB (12%)
Source stream size : 93.0 MiB (12%)

 Screenshots 

 

Thank You




Leave your comment (Please Login or Register Before the comments.)
 
1 comments
1 

Home - Browse Torrents - Upload Torrent - Stat - Forum - FAQ - Login- D.M.C.A
ETTorrent.xyz is in compliance with copyrights
Proxy Sites: Xtor.club Wikipediaz.xyz
BitCoin: 1PHjpE9JC3G4joZG6q2tUFkvHDmnTfKUJN

2016-2017 ETTorrent.xyz