Ami Je Ke Tomar (2017) 720p HDRip Bengali Movie x264 aac _-By Ayon-_ - ExtraTorrent The World's Largest Bit Torrent Site
Browse Torrents
| Search Cloud | | Activity Log | Donate | Upload Torrent | |
Latest Articles/Blogs
Most searched
Loading...
Loading...
ETTorrent.xyz > Categories > Movies > Foreign

Ami Je Ke Tomar (2017) 720p HDRip Bengali Movie x264 aac _-By Ayon-_


Download torrent: Bookmark Torrent: Coworker Blackmailed into Sex - Xev Bellringer XXX  Ami Je Ke Tomar (2017) 720p HDRip Bengali Movie x264 aac _-By Ayon-_
Info hash: 89C771439393B70EE5F923FF12F0DD12C7A30A1B
Category: Categories > Movies > Foreign
Trackers:
2    View all torrent trackers
Health:
 seeds: 979 ,  leechers: 1793
Torrent language: English Hindi
Total Size: 1867.83 MB
Number of files:
1     
Torrent status: Added by trusted uploader Added by trusted uploader
Uploader:
Torrent added: 2017-Sep-05 08:13:43
Users reaction: Please Login or Register for user reaction.




Torrent Description

Ami Je Ke Tomar (2017) 720p HDRip Bengali Movie x264 aac _-By Ayon-_

Ami Je Ke Tomar (2017) 720p HDRip Bengali Movie x264 aac _-By Ayon-_.mkv

General

Format : Matroska
Format version : Version 4 / Version 2
File size : 1.82 GiB
Duration : 2 h 9 min
Overall bit rate : 2 018 kb/s

Video
ID : 1
Format : AVC
Format/Info : Advanced Video Codec
Format profile : [email protected]
Format settings, CABAC : Yes
Format settings, RefFrames : 1 frame
Format settings, GOP : M=1, N=25
Codec ID : V_MPEG4/ISO/AVC
Duration : 2 h 9 min
Bit rate mode : Constant
Bit rate : 1 890 kb/s
Nominal bit rate : 2 000 kb/s
Width : 1 280 pixels
Height : 720 pixels
Display aspect ratio : 16:9
Frame rate mode : Constant
Frame rate : 25.000 FPS
Color space : YUV
Chroma subsampling : 4:2:0
Bit depth : 8 bits
Scan type : Progressive
Bits/(Pixel*Frame) : 0.082
Stream size : 1.71 GiB (94%)
Default : Yes
Forced : No

Audio
ID : 2
Format : AAC
Format/Info : Advanced Audio Codec
Format profile : LC
Codec ID : A_AAC
Duration : 2 h 9 min
Bit rate : 125 kb/s
Channel(s) : 2 channels
Channel positions : Front: L R
Sampling rate : 48.0 kHz
Frame rate : 46.875 FPS (1024 SPF)
Compression mode : Lossy
Stream size : 116 MiB (6%)
Language : Bengali
Default : Yes
Forced : No

Text
ID : 3
Format : UTF-8
Codec ID : S_TEXT/UTF8
Codec ID/Info : UTF-8 Plain Text
Duration : 2 h 8 min
Bit rate : 59 b/s
Count of elements : 1489
Stream size : 55.5 KiB (0%)
Language : English
Default : Yes
Forced : No

 Screenshots 

Thank You




Leave your comment (Please Login or Register Before the comments.)
 
1 comments
1 

Home - Browse Torrents - Upload Torrent - Stat - Forum - FAQ - Login- D.M.C.A
ETTorrent.xyz is in compliance with copyrights
Proxy Sites: Xtor.club Wikipediaz.xyz
BitCoin: 1PHjpE9JC3G4joZG6q2tUFkvHDmnTfKUJN

2016-2017 ETTorrent.xyz