Game of Thrones S07E05 Eastwatch AMZN WEB-DL DDP2 0 H 264-GoT - ExtraTorrent The World's Largest Bit Torrent Site
Browse Torrents
| Search Cloud | | Activity Log | Donate | Upload Torrent | |
Latest Articles/Blogs
Most searched
Loading...
Loading...
ETTorrent.xyz > Categories > TV > Game of Thrones

Game of Thrones S07E05 Eastwatch AMZN WEB-DL DDP2 0 H 264-GoT


Download torrent: Bookmark Torrent: Coworker Blackmailed into Sex - Xev Bellringer XXX  Game of Thrones S07E05 Eastwatch AMZN WEB-DL DDP2 0 H 264-GoT
Info hash: FAECDF7B56E28BE6E9D10116D181F186B0121ED9
Category: Categories > TV > Game of Thrones
Trackers:
15    View all torrent trackers
Health:
 seeds: 478 ,  leechers: 1835
Torrent language: English English
Total Size: 569.59 MB
Number of files:
2     
Torrent status: Added by trusted uploader Added by trusted uploader
Uploader:
Torrent added: 2017-Aug-13 09:53:00
Users reaction: Please Login or Register for user reaction.




Torrent Description

Game.of.Thrones.S07E05.Eastwatch.AMZN.WEB-DL.DDP2.0.H.264-GoT



Complete name                            : Game.of.Thrones.S07E05.Eastwatch.AMZN.WEB-DL.DDP2.0.H.264-GoT.mkv
Format                                   : Matroska
Format version                           : Version 4 / Version 2
File size                                : 570 MiB
Duration                                 : 1 h 0 min
Overall bit rate mode                    : Variable
Overall bit rate                         : 1 306 kb/s
Encoded date                             : UTC 2017-08-14 01:02:31
Writing application                      : mkvmerge v7.6.0 ('Garden of Dreams') 64bit built on Feb  8 2015 13:04:34
Writing library                          : libebml v1.3.1 + libmatroska v1.4.2

Video
ID                                       : 1
Format                                   : AVC
Format/Info                              : Advanced Video Codec
Format profile                           : [email protected]
Format settings, CABAC                   : Yes
Format settings, ReFrames                : 5 frames
Codec ID                                 : V_MPEG4/ISO/AVC
Duration                                 : 1 h 0 min
Bit rate mode                            : Variable
Bit rate                                 : 1 080 kb/s
Maximum bit rate                         : 2 995 kb/s
Width                                    : 960 pixels
Height                                   : 540 pixels
Display aspect ratio                     : 16:9
Frame rate mode                          : Constant
Frame rate                               : 23.976 (24000/1001) FPS
Color space                              : YUV
Chroma subsampling                       : 4:2:0
Bit depth                                : 8 bits
Scan type                                : Progressive
Bits/(Pixel*Frame)                       : 0.087
Stream size                              : 471 MiB (83%)
Default                                  : Yes
Forced                                   : No
Color range                              : Limited
Color primaries                          : BT.709
Transfer characteristics                 : BT.709
Matrix coefficients                      : BT.709

Audio
ID                                       : 2
Format                                   : E-AC-3
Format/Info                              : Enhanced Audio Coding 3
Format settings, Endianness              : Big
Codec ID                                 : A_EAC3
Duration                                 : 1 h 0 min
Bit rate mode                            : Constant
Bit rate                                 : 224 kb/s
Channel(s)                               : 2 channels
Channel positions                        : Front: L R
Sampling rate                            : 48.0 kHz
Frame rate                               : 187.500 FPS (256 spf)
Compression mode                         : Lossy
Delay relative to video                  : 6 ms
Stream size                              : 97.7 MiB (17%)
Language                                 : English
Service kind                             : Complete Main
Default                                  : Yes
Forced                                   : No

Text
ID                                       : 3
Format                                   : UTF-8
Codec ID                                 : S_TEXT/UTF8
Codec ID/Info                            : UTF-8 Plain Text
Duration                                 : 1 h 0 min
Bit rate                                 : 55 b/s
Count of elements                        : 779
Stream size                              : 24.7 KiB (0%)
Language                                 : English
Default                                  : No
Forced                                   : No

Menu
00:00:00.000                             : en:(Unnamed scene)
00:00:02.622                             : en:(Unnamed scene)
00:01:28.622                             : en:(Unnamed scene)
00:01:33.622                             : en:(Unnamed scene)
00:03:20.622                             : en:(Unnamed scene)
00:05:12.622                             : en:(Unnamed scene)
00:11:19.622                             : en:(Unnamed scene)
00:13:57.622                             : en:(Unnamed scene)
00:18:23.622                             : en:(Unnamed scene)
00:19:51.622                             : en:(Unnamed scene)
00:22:52.622                             : en:(Unnamed scene)
00:28:10.622                             : en:(Unnamed scene)
00:31:09.622                             : en:(Unnamed scene)
00:34:11.622                             : en:(Unnamed scene)
00:39:44.622                             : en:(Unnamed scene)
00:42:39.622                             : en:(Unnamed scene)
00:44:43.622                             : en:(Unnamed scene)
00:46:46.622                             : en:(Unnamed scene)
00:50:07.622                             : en:(Unnamed scene)
00:53:59.622                             : en:(Unnamed scene)
00:58:36.622                             : en:(Unnamed scene)
00:59:54.622                             : en:(Unnamed scene)
01:00:55.622                             : en:(Unnamed scene)






Click To View Screenshot

Click To View Screenshot

Click To View Screenshot




Leave your comment (Please Login or Register Before the comments.)
 
0 comments

Home - Browse Torrents - Upload Torrent - Stat - Forum - FAQ - Login- D.M.C.A
ETTorrent.xyz is in compliance with copyrights
Proxy Sites: Xtor.club Wikipediaz.xyz
BitCoin: 1PHjpE9JC3G4joZG6q2tUFkvHDmnTfKUJN

2016-2017 ETTorrent.xyz