King Arthur Legend of the Sword 2017 BRRip XviD B4ND1T69 - ExtraTorrent The World's Largest Bit Torrent Site
Browse Torrents
| Search Cloud | | Activity Log | Donate | Upload Torrent | |
Latest Articles/Blogs
Most searched
Loading...
Loading...
ETTorrent.xyz > Categories > Movies > Action

King Arthur Legend of the Sword 2017 BRRip XviD B4ND1T69


Download torrent: Bookmark Torrent: Coworker Blackmailed into Sex - Xev Bellringer XXX  King Arthur Legend of the Sword 2017 BRRip XviD B4ND1T69
Info hash: CCCDA30BF2B7742BA5EF1F5F7B5951F83CF6AB93
Category: Categories > Movies > Action
Trackers:
8    View all torrent trackers
Health:
 seeds: 1025 ,  leechers: 1131
Torrent language: English English
Total Size: 1614.55 MB
Number of files:
4     
Torrent status: Added by trusted uploader Added by trusted uploader
Uploader:
Torrent added: 2017-Aug-28 05:32:26
Users reaction: Please Login or Register for user reaction.




Torrent Description

King.Arthur.Legend.of.the.Sword.2017.BRRip.XviD.B4ND1T69



Director: Guy Ritchie
Writers: Joby Harold (screenplay), Guy Ritchie (screenplay)
Stars: Charlie Hunnam, Astrid Bergès-Frisbey, Jude Law

Plot/Story:
Robbed of his birthright, Arthur comes up the hard way in the back alleys of the city. But once he pulls the sword from the stone, he is forced to acknowledge his true legacy - whether he likes it or not.

General
Complete name               : King.Arthur.Legend.of.the.Sword.2017.BRRip.XviD.B4ND1T69.avi
Format                      : AVI
Format/Info                 : Audio Video Interleave
Format profile              : OpenDML
File size                   : 1.58 GiB
Duration                    : 2 h 6 min
Overall bit rate            : 1 788 kb/s
Writing application         : Lavf54.63.104

Video
ID                          : 0
Format                      : MPEG-4 Visual
Format profile              : [email protected]
Format settings, BVOP       : No
Format settings, QPel       : No
Format settings, GMC        : No warppoints
Format settings, Matrix     : Default (H.263)
Codec ID                    : XVID
Codec ID/Hint               : XviD
Duration                    : 2 h 6 min
Bit rate                    : 1 646 kb/s
Width                       : 720 pixels
Height                      : 304 pixels
Display aspect ratio        : 2.35:1
Frame rate                  : 23.976 (24000/1001) FPS
Original frame rate         : 23.976 (23976/1000) FPS
Color space                 : YUV
Chroma subsampling          : 4:2:0
Bit depth                   : 8 bits
Scan type                   : Progressive
Compression mode            : Lossy
Bits/(Pixel*Frame)          : 0.314
Stream size                 : 1.45 GiB (92%)
Writing library             : XviD 64
Subtitles                   : Yes...Included

Audio
ID                          : 1
Format                      : MPEG Audio
Format version              : Version 1
Format profile              : Layer 3
Mode                        : Joint stereo
Mode extension              : MS Stereo
Codec ID                    : 55
Codec ID/Hint               : MP3
Duration                    : 2 h 6 min
Bit rate mode               : Constant
Bit rate                    : 128 kb/s
Channel(s)                  : 2 channels
Sampling rate               : 48.0 kHz
Compression mode            : Lossy
Stream size                 : 116 MiB (7%)
Alignment                   : Aligned on interleaves
Interleave, duration        : 24  ms (0.58 video frame)
Interleave, preload duratio : 24  ms

Screenshots:










Please Seed For As Long As Possible
Or At Least 1:1 Ratio...Thanks
Enjoy Peeps




Leave your comment (Please Login or Register Before the comments.)
 
0 comments

Home - Browse Torrents - Upload Torrent - Stat - Forum - FAQ - Login- D.M.C.A
ETTorrent.xyz is in compliance with copyrights
Proxy Sites: Xtor.club Wikipediaz.xyz
BitCoin: 1PHjpE9JC3G4joZG6q2tUFkvHDmnTfKUJN

2016-2017 ETTorrent.xyz