Wind River 2017 CAM READNFO XViD-26k - ExtraTorrent The World's Largest Bit Torrent Site
Browse Torrents
| Search Cloud | | Activity Log | Donate | Upload Torrent | |
Latest Articles/Blogs
Most searched
Loading...
Loading...
ETTorrent.xyz > Categories > Movies > First Cams

Wind River 2017 CAM READNFO XViD-26k


Download torrent: Bookmark Torrent: Coworker Blackmailed into Sex - Xev Bellringer XXX  Wind River 2017 CAM READNFO XViD-26k
Info hash: 724B2E0BB744D7814DF9C0B39417F264028066A5
Category: Categories > Movies > First Cams
Trackers:
15    View all torrent trackers
Health:
 seeds: 31110 ,  leechers: 326
Torrent language: English English
Total Size: 1511.06 MB
Number of files:
4     
Torrent status: Added by trusted uploader Added by trusted uploader
Uploader:
Torrent added: 2017-Sep-06 03:56:23
Users reaction: Please Login or Register for user reaction.




Torrent Description

Wind.River.2017.CAM.READNFO.XViD-26k









Plot:

An FBI agent teams with a town's veteran game tracker to investigate a murder that occurred on a Native American reservation.


Sources - VIDEO: A Friend ....Thanks :P
        AUDIO: A Friend ....Thanks :P



Complete name               : Wind.River.2017.CAM.READNFO.XViD-26k.avi
Format                      : AVI
Format/Info                 : Audio Video Interleave
File size                   : 1.41 GiB
Duration                    : 1h 40mn
Overall bit rate            : 2 002 Kbps
Writing library             : VirtualDub build 32839/release

Video
ID                          : 0
Format                      : MPEG-4 Visual
Format profile              : Advanced [email protected]
Format settings, BVOP       : 2
Format settings, QPel       : Yes
Format settings, GMC        : No warppoints
Format settings, Matrix     : Default (H.263)
Muxing mode                 : Packed bitstream
Codec ID                    : XVID
Codec ID/Hint               : XviD
Duration                    : 1h 40mn
Bit rate                    : 1 863 Kbps
Width                       : 720 pixels
Height                      : 320 pixels
Display aspect ratio        : 2.25:1
Frame rate                  : 29.970 fps
Color space                 : YUV
Chroma subsampling          : 4:2:0
Bit depth                   : 8 bits
Scan type                   : Progressive
Compression mode            : Lossy
Bits/(Pixel*Frame)          : 0.270
Stream size                 : 1.31 GiB (93%)
Writing library             : XviD 67

Audio
ID                          : 1
Format                      : MPEG Audio
Format version              : Version 1
Format profile              : Layer 3
Mode                        : Joint stereo
Mode extension              : MS Stereo
Codec ID                    : 55
Codec ID/Hint               : MP3
Duration                    : 1h 40mn
Bit rate mode               : Constant
Bit rate                    : 128 Kbps
Channel(s)                  : 2 channels
Sampling rate               : 48.0 KHz
Compression mode            : Lossy
Delay relative to video     : 24ms
Stream size                 : 92.3 MiB (6%)
Alignment                   : Split accross interleaves
Interleave, duration        : 33 ms (1.00 video frame)
Writing library             : LAME3.99.5






Notes -

Took the source we were passed and went to work crop, resize, denoise and few other tweaks then jsut remuxed audio.. ENJOY ... 


REASON FOR READNFO::

THIS DOES HAVE GHOSTED WATERMARK LIKE SOME OF OUR OTHER VIDS.. WE DID NOT ADD IT THAT IS THE WAY WE GOT IT 


Screens:

   




Leave your comment (Please Login or Register Before the comments.)
 
1 comments
1 

Home - Browse Torrents - Upload Torrent - Stat - Forum - FAQ - Login- D.M.C.A
ETTorrent.xyz is in compliance with copyrights
Proxy Sites: Xtor.club Wikipediaz.xyz
BitCoin: 1PHjpE9JC3G4joZG6q2tUFkvHDmnTfKUJN

2016-2017 ETTorrent.xyz