• EN
    • Chinese ZH
    • English EN
    • Japanese JA
    • Portuguese PT
    • Spanish ES
    • French FR
    • Italian IT
    • German DE
  • Login
  • Register
Total available user on site :- 9284
Browse Torrents
| Search Cloud | | FAQ | Donate | Upload Torrent |
Latest Articles/Blogs
Most searched
Loading...
Loading...
ETTorrent.xyz > Categories > Movies > H2642 X264

The Quick and the Dead (1995) 1080p (5 1 - 2 0 Audio) x264 Phun Psyz


Download torrent: Bookmark Torrent: Coworker Blackmailed into Sex - Xev Bellringer XXX  The Quick and the Dead (1995) 1080p (5 1 - 2 0 Audio) x264 Phun Psyz
Info hash: BBD754453C93B61E6C550C8538AE4630CDB5FF08
Category: Categories > Movies > H2642 X264
Trackers:
12    View all torrent trackers
Health:
 seeds: 349 ,  leechers: 1443
Torrent language: English English
Total Size: 1633.2 MB
Number of files:
1     
Torrent status: Added by trusted uploader Added by trusted uploader
Uploader:
Torrent added: 2017-Sep-07 06:28:36
Users reaction: Please Login or Register for user reaction.




Torrent Description











Format                      : MPEG-4
Format profile              : Base Media / Version 2
Codec ID                    : mp42 (isom/iso2/avc1/mp41)
File size                   : 1.59 GiB
Duration                    : 1 h 47 min
Overall bit rate mode       : Variable
Overall bit rate            : 2 119 kb/s
Writing application         : HandBrake 1.0.7 2017040900

Video
ID                          : 1
Format                      : AVC
Format/Info                 : Advanced Video Codec
Format profile              : [email protected]
Format settings, CABAC      : Yes
Format settings, ReFrames   : 8 frames
Codec ID                    : avc1
Codec ID/Info               : Advanced Video Coding
Duration                    : 1 h 47 min
Bit rate                    : 1 628 kb/s
Width                       : 1 920 pixels
Height                      : 1 040 pixels
Display aspect ratio        : 1.85:1
Frame rate mode             : Variable
Frame rate                  : 23.976 (24000/1001) FPS
Minimum frame rate          : 23.974 FPS
Maximum frame rate          : 23.981 FPS
Color space                 : YUV
Chroma subsampling          : 4:2:0
Bit depth                   : 8 bits
Scan type                   : Progressive
Bits/(Pixel*Frame)          : 0.034
Stream size                 : 1.23 GiB (77%)
Writing library             : x264 core 148 r2708 86b7198
Color range                 : Limited
Color primaries             : BT.709
Transfer characteristics    : BT.709
Matrix coefficients         : BT.709
Menus                       : 5

Audio #1
ID                          : 2
Format                      : AAC
Format/Info                 : Advanced Audio Codec
Format profile              : LC
Codec ID                    : 40
Duration                    : 1 h 47 min
Bit rate mode               : Variable
Bit rate                    : 320 kb/s
Channel(s)                  : 2 channels
Channel(s)_Original         : 6 channels
Channel positions           : Front: L C R, Side: L R, LFE
Sampling rate               : 48.0 kHz
Frame rate                  : 46.875 FPS (1024 spf)
Compression mode            : Lossy
Stream size                 : 247 MiB (15%)
Title                       : Surround / Surround
Language                    : English
Default                     : Yes
Alternate group             : 1
Menus                       : 5

Audio #2
ID                          : 3
Format                      : AAC
Format/Info                 : Advanced Audio Codec
Format profile              : LC
Codec ID                    : 40
Duration                    : 1 h 47 min
Bit rate mode               : Variable
Bit rate                    : 160 kb/s
Channel(s)                  : 2 channels
Channel positions           : Front: L R
Sampling rate               : 48.0 kHz
Frame rate                  : 46.875 FPS (1024 spf)
Compression mode            : Lossy
Stream size                 : 124 MiB (8%)
Title                       : Stereo / Stereo
Language                    : English
Default                     : No
Alternate group             : 1
Menus                       : 5

Text
ID                          : 4
Format                      : Timed Text
Muxing mode                 : sbtl
Codec ID                    : tx3g
Duration                    : 1 h 43 min
Bit rate mode               : Variable
Bit rate                    : 33 b/s
Stream size                 : 25.0 KiB (0%)
Language                    : English
Default                     : Yes
Forced                      : No
Alternate group             : 3
Menus                       : 5

Menu
ID                          : 5
Codec ID                    : text
Duration                    : 1 h 47 min
Language                    : English
Bit rate mode               : CBR
Menu For                    : 1,2,3,4
00:00:00.000                : 00:00:00.000
00:07:20.440                : 00:07:20.315
00:15:26.259                : 00:15:25.174
00:20:39.905                : 00:20:39.530
00:28:15.027                : 00:28:14.151
00:34:40.745                : 00:34:40.620
00:40:49.113                : 00:40:48.905
00:47:41.525                : 00:47:40.357
00:53:19.196                : 00:53:18.946
00:59:51.588                : 00:59:50.754
01:06:26.649                : 01:06:26.566
01:12:25.675                : 01:12:24.924
01:16:25.915                : 01:16:25.331
01:24:03.705                : 01:24:02.621
01:33:44.285                : 01:33:44.244
01:38:36.577                : 01:38:36.285
 




Leave your comment (Please Login or Register Before the comments.)
 
0 comments

Home - Browse Torrents - Upload Torrent - Stat - Forum - FAQ - Login- D.M.C.A
ETTorrent.xyz is in compliance with copyrights
Proxy Sites: Xtor.club Wikipediaz.xyz
BitCoin: 1PHjpE9JC3G4joZG6q2tUFkvHDmnTfKUJN

2016-2017 ETTorrent.xyz