Suicide Squad (2016) Ext 1920 x 800 (1080p) (5 1 - 2 0) x264 Phun Psyz - ExtraTorrent The World's Largest Bit Torrent Site
Browse Torrents
| Search Cloud | | Activity Log | Donate | Upload Torrent | |
Latest Articles/Blogs
Most searched
Loading...
Loading...
ETTorrent.xyz > Categories > Movies > H2642 X264

Suicide Squad (2016) Ext 1920 x 800 (1080p) (5 1 - 2 0) x264 Phun Psyz


Download torrent: Bookmark Torrent: Coworker Blackmailed into Sex - Xev Bellringer XXX  Suicide Squad (2016) Ext 1920 x 800 (1080p) (5 1 - 2 0) x264 Phun Psyz
Info hash: B29DD0D1B060AF7AAA5E680F6818CE2EC1E3B82B
Category: Categories > Movies > H2642 X264
Trackers:
12    View all torrent trackers
Health:
 seeds: 1009 ,  leechers: 1018
Torrent language: English English
Total Size: 2033.83 MB
Number of files:
1     
Torrent status: Added by trusted uploader Added by trusted uploader
Uploader:
Torrent added: 2017-Sep-07 05:52:27
Users reaction: Please Login or Register for user reaction.




Torrent Description











Format                      : MPEG-4
Format profile              : Base Media / Version 2
Codec ID                    : mp42 (isom/iso2/avc1/mp41)
File size                   : 1.99 GiB
Duration                    : 2 h 14 min
Overall bit rate mode       : Variable
Overall bit rate            : 2 113 kb/s
Writing application         : HandBrake 1.0.7 2017040900

Video
ID                          : 1
Format                      : AVC
Format/Info                 : Advanced Video Codec
Format profile              : [email protected]
Format settings, CABAC      : Yes
Format settings, ReFrames   : 8 frames
Codec ID                    : avc1
Codec ID/Info               : Advanced Video Coding
Duration                    : 2 h 14 min
Bit rate                    : 1 623 kb/s
Width                       : 1 920 pixels
Height                      : 800 pixels
Display aspect ratio        : 2.40:1
Frame rate mode             : Variable
Frame rate                  : 23.976 (24000/1001) FPS
Minimum frame rate          : 23.974 FPS
Maximum frame rate          : 23.981 FPS
Color space                 : YUV
Chroma subsampling          : 4:2:0
Bit depth                   : 8 bits
Scan type                   : Progressive
Bits/(Pixel*Frame)          : 0.044
Stream size                 : 1.53 GiB (77%)
Writing library             : x264 core 148 r2708 86b7198
Color range                 : Limited
Color primaries             : BT.709
Transfer characteristics    : BT.709
Matrix coefficients         : BT.709
Menus                       : 7

Audio #1
ID                          : 2
Format                      : AAC
Format/Info                 : Advanced Audio Codec
Format profile              : LC
Codec ID                    : 40
Duration                    : 2 h 14 min
Bit rate mode               : Variable
Bit rate                    : 320 kb/s
Channel(s)                  : 2 channels
Channel(s)_Original         : 6 channels
Channel positions           : Front: L C R, Side: L R, LFE
Sampling rate               : 48.0 kHz
Frame rate                  : 46.875 FPS (1024 spf)
Compression mode            : Lossy
Stream size                 : 308 MiB (15%)
Title                       : Surround / Surround
Language                    : English
Default                     : Yes
Alternate group             : 1
Menus                       : 7

Audio #2
ID                          : 3
Format                      : AAC
Format/Info                 : Advanced Audio Codec
Format profile              : LC
Codec ID                    : 40
Duration                    : 2 h 14 min
Bit rate mode               : Variable
Bit rate                    : 160 kb/s
Channel(s)                  : 2 channels
Channel positions           : Front: L R
Sampling rate               : 48.0 kHz
Frame rate                  : 46.875 FPS (1024 spf)
Compression mode            : Lossy
Stream size                 : 154 MiB (8%)
Title                       : Stereo / Stereo
Language                    : English
Default                     : No
Alternate group             : 1
Menus                       : 7

Text #1
ID                          : 4
Format                      : Timed Text
Muxing mode                 : sbtl
Codec ID                    : tx3g
Duration                    : 2 h 7 min
Bit rate mode               : Variable
Bit rate                    : 79 b/s
Stream size                 : 74.0 KiB (0%)
Language                    : English
Default                     : Yes
Forced                      : No
Alternate group             : 3
Menus                       : 7

Text #2
ID                          : 5
Format                      : Timed Text
Muxing mode                 : sbtl
Codec ID                    : tx3g
Duration                    : 2 h 14 min
Bit rate mode               : Variable
Bit rate                    : 54 b/s
Stream size                 : 52.7 KiB (0%)
Language                    : Spanish
Default                     : No
Forced                      : No
Alternate group             : 3
Menus                       : 7

Text #3
ID                          : 6
Format                      : Timed Text
Muxing mode                 : sbtl
Codec ID                    : tx3g
Duration                    : 2 h 14 min
Bit rate mode               : Variable
Bit rate                    : 52 b/s
Stream size                 : 51.1 KiB (0%)
Language                    : French
Default                     : No
Forced                      : No
Alternate group             : 3
Menus                       : 7

Menu
ID                          : 7
Codec ID                    : text
Duration                    : 2 h 14 min
Language                    : English
Bit rate mode               : CBR
Menu For                    : 1,2,3,4,5,6
00:00:00.000                : 00:00:00.000
00:09:08.548                : 00:09:08.506
00:20:23.889                : 00:20:22.972
00:31:15.207                : 00:31:14.706
00:41:05.129                : 00:41:04.879
00:52:21.805                : 00:52:21.805
01:04:49.219                : 01:04:48.843
01:21:12.868                : 01:21:12.743
01:32:12.193                : 01:32:11.943
01:42:58.172                : 01:42:57.671
01:50:58.652                : 01:50:58.652
02:04:06.105                : 02:04:04.812
 




Leave your comment (Please Login or Register Before the comments.)
 
0 comments

Home - Browse Torrents - Upload Torrent - Stat - Forum - FAQ - Login- D.M.C.A
ETTorrent.xyz is in compliance with copyrights
Proxy Sites: Xtor.club Wikipediaz.xyz
BitCoin: 1PHjpE9JC3G4joZG6q2tUFkvHDmnTfKUJN

2016-2017 ETTorrent.xyz