• EN
    • Chinese ZH
    • English EN
    • Japanese JA
    • Portuguese PT
    • Spanish ES
    • French FR
    • Italian IT
    • German DE
  • Login
  • Register
Total available user on site :- 7509
Browse Torrents
| Search Cloud | | FAQ | Donate | Upload Torrent | |
Latest Articles/Blogs
Most searched
Loading...
Loading...
ETTorrent.xyz > Categories > TV > Game of Thrones

Game of Thrones S07E05 REPACK WEB h264-TBS


Download torrent: Bookmark Torrent: Coworker Blackmailed into Sex - Xev Bellringer XXX  Game of Thrones S07E05 REPACK WEB h264-TBS
Info hash: 08D45A65975082A589B8EE404CE4A557AD8AFFB8
Category: Categories > TV > Game of Thrones
Trackers:
15    View all torrent trackers
Health:
 seeds: 747 ,  leechers: 1649
Torrent language: English English
Total Size: 758.88 MB
Number of files:
2     
Torrent status: Added by trusted uploader Added by trusted uploader
Uploader:
Torrent added: 2017-Aug-13 09:54:30
Users reaction: Please Login or Register for user reaction.




Torrent Description

Game.of.Thrones.S07E05.REPACK.WEB.h264-TBS



Complete name                            : game.of.thrones.s07e05.repack.web.h264-tbs.mkv
Format                                   : Matroska
Format version                           : Version 4 / Version 2
File size                                : 759 MiB
Duration                                 : 59 min 51 s
Overall bit rate mode                    : Variable
Overall bit rate                         : 1 772 kb/s
Encoded date                             : UTC 2017-08-14 01:47:18
Writing application                      : mkvmerge v8.8.0 ('Wind at my back') 64bit
Writing library                          : libebml v1.3.3 + libmatroska v1.4.4 / Lavf57.25.100

Video
ID                                       : 1
Format                                   : AVC
Format/Info                              : Advanced Video Codec
Format profile                           : [email protected]
Format settings, CABAC                   : Yes
Format settings, ReFrames                : 4 frames
Codec ID                                 : V_MPEG4/ISO/AVC
Duration                                 : 59 min 51 s
Bit rate mode                            : Variable
Bit rate                                 : 1 581 kb/s
Maximum bit rate                         : 2 010 kb/s
Width                                    : 960 pixels
Height                                   : 540 pixels
Display aspect ratio                     : 16:9
Frame rate mode                          : Constant
Frame rate                               : 23.976 (24000/1001) FPS
Color space                              : YUV
Chroma subsampling                       : 4:2:0
Bit depth                                : 8 bits
Scan type                                : Progressive
Bits/(Pixel*Frame)                       : 0.127
Stream size                              : 677 MiB (89%)
Default                                  : Yes
Forced                                   : No

Audio
ID                                       : 2
Format                                   : AAC
Format/Info                              : Advanced Audio Codec
Format profile                           : LC
Codec ID                                 : A_AAC
Duration                                 : 59 min 51 s
Bit rate                                 : 192 kb/s
Channel(s)                               : 2 channels
Channel positions                        : Front: L R
Sampling rate                            : 48.0 kHz
Frame rate                               : 46.875 FPS (1024 spf)
Compression mode                         : Lossy
Delay relative to video                  : -41 ms
Stream size                              : 81.1 MiB (11%)
Default                                  : Yes
Forced                                   : No






Click To View Screenshot

Click To View Screenshot

Click To View Screenshot




Leave your comment (Please Login or Register Before the comments.)
 
0 comments

Home - Browse Torrents - Upload Torrent - Stat - Forum - FAQ - Login- D.M.C.A
ETTorrent.xyz is in compliance with copyrights
Proxy Sites: Xtor.club Wikipediaz.xyz
BitCoin: 1PHjpE9JC3G4joZG6q2tUFkvHDmnTfKUJN

2016-2017 ETTorrent.xyz