• EN
    • Chinese ZH
    • English EN
    • Japanese JA
    • Portuguese PT
    • Spanish ES
    • French FR
    • Italian IT
    • German DE
  • Login
  • Register
Total available user on site :- 9301
Browse Torrents
| Search Cloud | | FAQ | Donate | Upload Torrent | |
Latest Articles/Blogs
Most searched
Loading...
Loading...
ETTorrent.xyz > Categories > Movies > Foreign

Dekh Kemon Lage (2017) HDTV Rip Bengali Movie - 1CD - AC3(2Ch) _-By Ayon-_


Download torrent: Bookmark Torrent: Coworker Blackmailed into Sex - Xev Bellringer XXX  Dekh Kemon Lage (2017) HDTV Rip Bengali Movie - 1CD - AC3(2Ch) _-By Ayon-_
Info hash: AC53788131E5699107D90944A3B51544F3A299DE
Category: Categories > Movies > Foreign
Trackers:
2    View all torrent trackers
Health:
 seeds: 28060 ,  leechers: 126
Torrent language: English Hindi
Total Size: 700.53 MB
Number of files:
1     
Torrent status: Added by trusted uploader Added by trusted uploader
Uploader:
Torrent added: 2017-Aug-28 07:33:11
Users reaction: Please Login or Register for user reaction.




Torrent Description

Dekh Kemon Lage (2017) HDTV Rip Bengali Movie - 1CD - AC3(2Ch) _-By Ayon-_

Dekh Kemon Lage (2017) HDTV Rip Bengali Movie - 1CD - AC3(2Ch)_-By Ayon-_.mp4

General

Format : MPEG-4
Format profile : Base Media
Codec ID : isom (isom)
File size : 701 MiB
Duration : 2 h 35 min
Overall bit rate : 631 kb/s

Video
ID : 1
Format : AVC
Format/Info : Advanced Video Codec
Format profile : [email protected]
Format settings, CABAC : Yes
Format settings, RefFrames : 4 frames
Codec ID : avc1
Codec ID/Info : Advanced Video Coding
Duration : 2 h 35 min
Bit rate : 500 kb/s
Maximum bit rate : 2 396 kb/s
Width : 640 pixels
Height : 272 pixels
Display aspect ratio : 2.35:1
Frame rate mode : Constant
Frame rate : 29.970 (30000/1001) FPS
Color space : YUV
Chroma subsampling : 4:2:0
Bit depth : 8 bits
Scan type : Progressive
Bits/(Pixel*Frame) : 0.096
Stream size : 555 MiB (79%)

Audio
ID : 2
Format : AC-3
Format/Info : Audio Coding 3
Format settings, Endianness : Big
Codec ID : ac-3
Duration : 2 h 35 min
Bit rate mode : Constant
Bit rate : 128 kb/s
Maximum bit rate : 135 kb/s
Channel(s) : 2 channels
Channel positions : Front: L R
Sampling rate : 48.0 kHz
Frame rate : 31.250 FPS (1536 SPF)
Bit depth : 16 bits
Compression mode : Lossy
Stream size : 142 MiB (20%)
Language : Bengali

 Screenshots 

Thank You




Leave your comment (Please Login or Register Before the comments.)
 
2 comments
1 

Home - Browse Torrents - Upload Torrent - Stat - Forum - FAQ - Login- D.M.C.A
ETTorrent.xyz is in compliance with copyrights
Proxy Sites: Xtor.club Wikipediaz.xyz
BitCoin: 1PHjpE9JC3G4joZG6q2tUFkvHDmnTfKUJN

2016-2017 ETTorrent.xyz