King Arthur Legend of the Sword (2017) (1080p BluRay x265 HEVC 10bit Advanced Audio 7 1) [UTR-HD] - ExtraTorrent The World's Largest Bit Torrent Site
Browse Torrents
| Search Cloud | | Activity Log | Donate | Upload Torrent | |
Latest Articles/Blogs
Most searched
Loading...
Loading...
ETTorrent.xyz > Categories > Movies > BluRay,4K UHD

King Arthur Legend of the Sword (2017) (1080p BluRay x265 HEVC 10bit Advanced Audio 7 1) [UTR-HD]


Download torrent: Bookmark Torrent: Coworker Blackmailed into Sex - Xev Bellringer XXX  King Arthur Legend of the Sword (2017) (1080p BluRay x265 HEVC 10bit Advanced Audio 7 1) [UTR-HD]
Info hash: D889FFA1FCC6ADDFAA1B38DA956DD2B0E8839258
Category: Categories > Movies > BluRay,4K UHD
Trackers:
6    View all torrent trackers
Health:
 seeds: 237 ,  leechers: 782
Torrent language: English English
Total Size: 5902.18 MB
Number of files:
1     
Torrent status: Added by trusted uploader Added by trusted uploader
Uploader:
Torrent added: 2017-Aug-28 04:46:37
Users reaction: Please Login or Register for user reaction.




Torrent Description



B-Frame Screenshots








General

Format                                   : Matroska
Format version                           : Version 4 / Version 2
File size                                : 5.76 GiB
Duration                                 : 2 h 6 min
Overall bit rate                         : 6 537 kb/s
Encoded date                             : UTC 2017-08-25 15:25:34
Writing application                      : mkvmerge v15.0.0 ('Duel with the Devil') 64-bit
Writing library                          : libebml v1.3.5 + libmatroska v1.4.5

Video

Format                                   : HEVC
Format/Info                              : High Efficiency Video Coding
Format profile                           : Main [email protected]@Main
Codec ID                                 : V_MPEGH/ISO/HEVC
Duration                                 : 2 h 6 min
Bit rate                                 : 5 698 kb/s
Width                                    : 1 920 pixels
Height                                   : 800 pixels
Display aspect ratio                     : 2.40:1
Frame rate mode                          : Constant
Frame rate                               : 23.976 (24000/1001) FPS
Color space                              : YUV
Chroma subsampling                       : 4:2:0
Bit depth                                : 10 bits
Bits/(Pixel*Frame)                       : 0.155
Stream size                              : 5.02 GiB (87%)
Writing library                          : x265 2.5+6-d11482e5fedb:[Windows][GCC 7.1.0][64 bit] 10bit
Language                                 : English
Default                                  : Yes
Forced                                   : No

Audio

Format                                   : AAC
Format/Info                              : Advanced Audio Codec
Format profile                           : LC
Codec ID                                 : A_AAC
Duration                                 : 2 h 6 min
Bit rate                                 : 804 kb/s
Channel(s)                               : 8 channels
Channel positions                        : Front: L C R, Side: 4, LFE
Sampling rate                            : 48.0 kHz
Frame rate                               : 46.875 FPS (1024 spf)
Compression mode                         : Lossy
Delay relative to video                  : 20 ms
Stream size                              : 726 MiB (12%)
Language                                 : English
Default                                  : Yes
Forced                                   : No

Source Information

Release                                  : .BluRay.AVC.TrueHD.7.1.Atmos-FGT
Complete name                            : King.Arthur.Legend.of.the.Sword.2017.1080p.BluRay.AVC.TrueHD.7.1.Atmos-FGT.mkv
File size                                : 37.8 GiB
Duration                                 : 2 h 06 min
Bit rate mode                            : Variable
Bit rate                                 : N/A


UniTeam Branding and Imagery©
No part of this release may be reproduced, distributed, de-tagged or dumped in any form or by any means, without prior consents and permissions of the UniTeam Representative. For distribution requestings, message the uploader or any other UniTeam Representative. Once and only once the permission has been granted, the individual(s) may publish to the desired location without any alterations whatsoever, retaining complete filenames, UTR tags, logos, imagery and all credits due.

Explicitly Enforced




Leave your comment (Please Login or Register Before the comments.)
 
0 comments

Home - Browse Torrents - Upload Torrent - Stat - Forum - FAQ - Login- D.M.C.A
ETTorrent.xyz is in compliance with copyrights
Proxy Sites: Xtor.club Wikipediaz.xyz
BitCoin: 1PHjpE9JC3G4joZG6q2tUFkvHDmnTfKUJN

2016-2017 ETTorrent.xyz