• EN
    • Chinese ZH
    • English EN
    • Japanese JA
    • Portuguese PT
    • Spanish ES
    • French FR
    • Italian IT
    • German DE
  • Login
  • Register
Total available user on site :- 9425
Browse Torrents
| Search Cloud | | FAQ | Donate | Upload Torrent |
Latest Articles/Blogs
Most searched
Loading...
Loading...
ETTorrent.xyz > Categories > Movies > BluRay,4K UHD

Suicide Squad (2016) 1080P WEB-DL Extended cut Hevc Bluury


Download torrent: Bookmark Torrent: Coworker Blackmailed into Sex - Xev Bellringer XXX  Suicide Squad (2016) 1080P WEB-DL Extended cut Hevc Bluury
Info hash: DA541D415ABE86B3D48AFDE94E8123B6D47F4512
Category: Categories > Movies > BluRay,4K UHD
Trackers:
30    View all torrent trackers
Health:
 seeds: 32 ,  leechers: 161
Torrent language: English English
Total Size: 834.48 MB
Number of files:
1     
Torrent status: Added by trusted uploader Added by trusted uploader
Uploader:
Torrent added: 2017-Aug-29 01:17:37
Users reaction: Please Login or Register for user reaction.




Torrent Description

download seed and enjoy ,and not webseeded so I need little help with the seeding and take little longer than webseed torrents thank you

Screens
  

Quote:

mediainfo
Video
ID                          : 1
Format                      : HEVC
Format/Info                 : High Efficiency Video Coding
Format profile              : [email protected]@Main
Codec ID                    : V_MPEGH/ISO/HEVC
Duration                    : 2 h 14 min
Bit rate                    : 711 kb/s
Width                       : 1 916 pixels
Height                      : 796 pixels
Display aspect ratio        : 2.40:1
Frame rate mode             : Constant
Frame rate                  : 23.976 (24000/1001) FPS
Color space                 : YUV
Chroma subsampling          : 4:2:0
Bit depth                   : 8 bits
Bits/(Pixel*Frame)          : 0.019
Stream size                 : 684 MiB (82%)
Writing library             : x265 2.1+20-c64393b415ad:[Windows][MSVC 1900][64 bit] 8bit
Encoding settings           : wpp / ctu=64 / min-cu-size=8 / max-tu-size=32 / tu-intra-depth=1 / tu-inter-depth=1 / me=3 / subme=3 / merange=57 / rect / amp / max-merge=2 / temporal-mvp / no-early-skip / rskip / rdpenalty=0 / no-tskip / no-tskip-fast / no-strong-intra-smoothing / no-lossless / no-cu-lossless / no-constrained-intra / no-fast-intra / open-gop / no-temporal-layers / interlace=0 / keyint=250 / min-keyint=23 / scenecut=40 / rc-lookahead=25 / lookahead-slices=0 / bframes=8 / bframe-bias=0 / b-adapt=2 / ref=4 / limit-refs=2 / limit-modes / weightp / weightb / aq-mode=3 / qg-size=32 / aq-strength=1.00 / cbqpoffs=0 / crqpoffs=0 / rd=4 / psy-rd=1.00 / rdoq-level=2 / psy-rdoq=0.00 / log2-max-poc-lsb=8 / limit-tu=0 / no-rd-refine / signhide / deblock=2:2 / sao / no-sao-non-deblock / b-pyramid / cutree / no-intra-refresh / rc=crf / crf=27.0 / qcomp=0.60 / qpmin=0 / qpmax=69 / qpstep=4 / ipratio=1.40 / pbratio=1.30
Default                     : Yes
Forced                      : No
Color range                 : Limited
Color primaries             : BT.709

Audio
ID                          : 2
Format                      : Opus
Codec ID                    : A_OPUS
Duration                    : 2 h 14 min
Bit rate                    : 154 kb/s
Channel(s)                  : 6 channels
Channel positions           : Front: L C R, Rear: L R, LFE
Sampling rate               : 48.0 kHz
Frame rate                  : 50.000 FPS (960 spf)
Compression mode            : Lossy
Stream size                 : 149 MiB (18%)
Default                     : Yes
Forced                      : No

Text
ID                          : 3
Format                      : UTF-8
Codec ID                    : S_TEXT/UTF8
Codec ID/Info               : UTF-8 Plain Text
Duration                    : 2 h 7 min
Bit rate                    : 47 b/s
Count of elements           : 1619
Stream size                 : 44.6 KiB (0%)
Default                     : Yes
Forced                      : No


trailer




Leave your comment (Please Login or Register Before the comments.)
 
0 comments

Home - Browse Torrents - Upload Torrent - Stat - Forum - FAQ - Login- D.M.C.A
ETTorrent.xyz is in compliance with copyrights
Proxy Sites: Xtor.club Wikipediaz.xyz
BitCoin: 1PHjpE9JC3G4joZG6q2tUFkvHDmnTfKUJN

2016-2017 ETTorrent.xyz